文档章节

用cue加载ape或者flac出错的解决方法

逍遥书生
 逍遥书生
发布于 2013/04/01 15:06
字数 926
阅读 3881
收藏 2

我下载了很多无损音乐CD,ape和flac的都有。系统安装了虚拟光驱软件后,那么听歌曲变得非常方便,直接加载cue文件就好了。 我主要是往iTunes导入CD,然后使用iTunes的获得CD曲目信息功能 。

但是从网上下载的一部分文件在用虚拟光驱加载的时候会出错,提示“无法载入映象文件,无法访问文件”。 我用记事本打开cue文件,发现了点问题。

PERFORMER "BackStreet Boys"
TITLE "Greatest hits- Chapter One"
FILE "BackStreet.Boys.-.[Greatest.hits.-.Chapter.One].专辑.(ape).ape" WAVE
  TRACK 01 AUDIO
    TITLE "I Want It That Way"
    PERFORMER "BackStreet Boys"
    INDEX 01 00:00:00
  TRACK 02 AUDIO
    TITLE "Everybody (BackStreet Boys)"
    PERFORMER "BackStreet Boys"
    INDEX 01 03:35:12
  TRACK 03 AUDIO
    TITLE "As Lonng As You Love Me"
    PERFORMER "BackStreet Boys"
    INDEX 01 08:23:02
  TRACK 04 AUDIO
    TITLE "Show Me The Meaning Of Being Lonely"
    PERFORMER "BackStreet Boys"
    INDEX 01 11:57:05
  TRACK 05 AUDIO
    TITLE "Quit Playing Games(With My Heart)"
    PERFORMER "BackStreet Boys"
    INDEX 01 15:53:40
  TRACK 06 AUDIO
    TITLE "We've Got it Going' On"
    PERFORMER "BackStreet Boys"
    INDEX 01 19:47:42
  TRACK 07 AUDIO
    TITLE "All I Have To Give"
    PERFORMER "BackStreet Boys"
    INDEX 01 23:28:47
  TRACK 08 AUDIO
    TITLE "Larger Than Life"
    PERFORMER "BackStreet Boys"
    INDEX 01 28:06:67
  TRACK 09 AUDIO
    TITLE "I'll Never Break Your Heart"
    PERFORMER "BackStreet Boys"
    INDEX 01 32:01:07
  TRACK 10 AUDIO
    TITLE "Te Call"
    PERFORMER "BackStreet Boys"
    INDEX 01 36:51:45
  TRACK 11 AUDIO
    TITLE "Shape Of My Heart"
    PERFORMER "BackStreet Boys"
    INDEX 01 40:17:00
  TRACK 12 AUDIO
    TITLE "Get Down (You're The One For Me)"
    PERFORMER "BackStreet Boys"
    INDEX 01 44:09:07
  TRACK 13 AUDIO
    TITLE "Anywhere For You"
    PERFORMER "BackStreet Boys"
    INDEX 01 48:01:40
  TRACK 14 AUDIO
    TITLE "The One"
    PERFORMER "BackStreet Boys"
    INDEX 01 52:43:45
  TRACK 15 AUDIO
    TITLE "More Than That"
    PERFORMER "BackStreet Boys"
    INDEX 01 56:32:02
  TRACK 16 AUDIO
    TITLE "The Perfect Fan"
    PERFORMER "BackStreet Boys"
    INDEX 01 60:16:02
 上面是后街男孩的一个专辑的cue文件,最开始顶部标识了一部分信息。
PERFORMER "BackStreet Boys"
这个是表演者。
TITLE "Greatest hits- Chapter One"
这个是专辑名称。
FILE "BackStreet.Boys.-.[Greatest.hits.-.Chapter.One].专辑.(ape).ape" WAVE
这个是音频文件名称及格式。

一般映象无法加载大多是这里出错早成的。有些人对CD抓轨然后压缩,这里没有修改,直接重命名压缩好的文件就上传了。这种错误的处理方法就是直接复制ape或者flac文件名字到这里粘贴。注意,有时候系统会隐藏文件的扩展名,需要调出来。

但是有时候复制粘贴文件名后还是会出错,不能加载文件。那就是另外一种错误,有些cue文件用的是UTF-8编码格式,但是虚拟光驱可能只能使用ANSI编码的文件,那么我们可以把cue文件另存为ANSI格式编码的,然后就能加载了。

我遇到的问题全部是这两种错误,暂时没遇到别的问题。 

PS:突然遇到第三种了,第三种我真的不知道是什么原因造成的。文件名也对,编码也对,但是就是无法用虚拟光驱加载。
    解决方法 :我用DAEMON Tools pro的编辑映象功能,直接打开映象ape文件,然后保存成MDX文件。接下来用虚拟光驱载入MDX文件,然后使用Exact Audio Copy重新抓轨成wav,最后使用Monkey's Audio压缩成ape文件。这个相当的麻烦呀。
    不知道还会不会遇到其他,印象中有一次ape文件无法用DAEMON Tools pro的编辑映象功能打开,最后先使用Monkey's Audio解压缩成wav,然后用虚拟光驱重新载入重新抓轨的。但是这个时候我没有注意到cue编码的问题,不知道是不是个例。

© 著作权归作者所有

共有 人打赏支持
逍遥书生
粉丝 2
博文 8
码字总数 5154
作品 0
济南
技术主管
私信 提问
加载中

评论(2)

逍遥书生
逍遥书生

引用来自“布尔道长”的评论

我一向都分轨

我喜欢用整轨是为了用虚拟光驱加载,然后方便往iTunes导入的时候能获取CD信息,我感觉这个比freedb好用多了。
子矜
子矜
我一向都分轨
分割flac文件

使用shntool 分割flac: -d 指定分轨后的falc文件的输出目录,不指定的话在当前目录生成 -t 指定输出文件的文件名格式,%n是音轨号,%p是演奏者/艺术家, %t标题;feng 分割ape: 分割加转换:...

在湖闻樟
2016/07/15
53
0
安装 CD 音频文件提取工具--Flacon

Flacon 是一款 Qt 工具,用于从音频 CD 中提取个人曲目,基于在CUE文件中提供的信息提取如 WavPack、 APE、 FLAC、 WAV 或 True Audio。 该应用程序提供了输出格式具体设置:你可以设置除 Re...

孔小菜
2015/09/14
212
0
音乐播放器--Andless

Andless是一个无损格式 (FLAC/APE/MPC/WV)音乐播放器, 以及Android系统直接支持的其他音乐文件类型。 目前对于苹果的无损文件(in M4A container) 已经支持良好。 CUE 列表及播放表单已经支持...

匿名
2012/11/15
4.3K
0
音乐播放器--AirPlay

AirPlay 是一款国产的音乐播放软件,首先值得说的是Air Player身材瘦小,只有700KB大小,而且纯绿色,单文件,更值得说的是界面华丽。更强力的是这款播放器支持了基本上全部的音频格式,涵盖...

匿名
2010/04/07
7K
0
Kreogist Mu 1.0.0 Beta 1 发布,跨平台音乐中心

Kreogist Mu 1.0.0 Beta 1 发布了。此版本更新了上一个版本中部分影响稳定性的bug。此版本的更新日志如下: 1、更新了单例应用的判定方式,解决了强制关闭后可能无法启动的问题 2、更新Bass到...

東條・スペンサー・咲
2017/04/20
1K
11

没有更多内容

加载失败,请刷新页面

加载更多

网友第一次开发EOS区块链的经验

在处理项目时,用Java Connector for EOS区块链编写: 创建钱包 创建帐户 创建交易 创建签名交易 在帐户之间转移代币 我遇到了各种和运行本地EOS节点需要遵循的基本步骤。这个小指南纯粹是为...

geek12345
13分钟前
1
0
mybatis insert 动态生成插入的列及插入的值

代码如下 : 1.mapper.xml 文件 <?xml version="1.0" encoding="UTF-8"?><!DOCTYPE mapper PUBLIC "-//mybatis.org//DTD Mapper 3.0//EN" "http://mybatis.org/dtd/mybatis-3-mapper.dtd"......

qimh
22分钟前
1
0
junit启动报错 Unable to find a @SpringBootConfiguration

环境 springboot项目 工程结构: test类编写: 异常 Unable to find a @SpringBootConfiguration, you need to use @ContextConfiguration or @SpringBootTest(classes=...) with your test ......

zzx10
23分钟前
1
0
Html5 学习

1、mui 框架中的 plusReady 真机运行,浏览器不执行 http://ask.dcloud.net.cn/question/31708。 2、参考网络请求 仿网页 https://www.jianshu.com/u/84b5ef6309d6...

QGlaunch
24分钟前
1
0
net.sf.ezmorph.bean.MorphDynaBean cannot be cast to com.console.demo.web.model.XXX

前景: net.sf.ezmorph.bean.MorphDynaBean cannot be cast to com.console.demo.web.model.XXX //jsonObject:所有参数//FreightTemplate对象里面包含一个 private List<FreightTemplateCi......

事儿爹
24分钟前
0
0

没有更多内容

加载失败,请刷新页面

加载更多

返回顶部
顶部